花粉俱乐部  logo

花粉俱乐部  因为热爱
搜索 |
[晒单评测]

【这就是荣耀平板】 热像仪 带你看看不一样的荣耀平板

[复制帖子标题和链接]

2460516

rogerman  热心花粉  发表于 2014-11-21 02:44:09 来自:浏览器

最新回复 2015-2-15 14:19:02

本帖最后由 rogerman 于 2014-11-21 03:27 编辑
    前期发布了【这就是荣耀平板】居家必备小神器-开箱初体验
    这次算是进阶测试了,之前我一直在使用荣耀3x畅玩版,玩大型游戏的时候,摄像头部位总是很热,自从用了荣耀平板,这种发烧的感觉没有了,难道,荣耀平板,是为了退烧而生?这让我顿生疑惑,为了解开这些谜团,我决定借助热像仪来看看。
    首先普及下热像仪的知识:
    任何有温度的物体都会发出红外线,热像仪就是接收物体发出的红外线,通过不同色度的图片来显示被测量物表面的温度分布,根据温度的微小差异来成像。一般也称作红外热像仪。但是这不是很久之前的主动红外夜视仪(已淘汰)。具体可以问度娘。

    先来张图片大家看看效果(白热模式)
    第一张是笔记本电脑和荣耀3x畅玩版、荣耀平板电脑全家福,第二张是用手摸一下荣耀3x畅玩版后马上拍下热量效果图。至于第一张图里面,还有很多物体,大家有兴趣可以猜猜看。
IMG_33.JPG

IMG_11.JPG


    好了书归正传,我们知道荣耀平板采用的是高通骁龙MSM8212处理器,主频300Mhz-1.2GHz,核心数为四核,集成显卡芯片是Adreno 302,最高工作在400MHZ,支持opengl ES 3.0,功能齐全功耗低是它的优势,好吧,都说鱼和熊掌不可兼得,性能和耗电量(反映到体感也就是发热程度,反映到参数上就是工作时间)到底在荣耀平板身上如何协调?

    首先测试下性能,祭出久誉盛名的3Dmark开整
    3Dmark算是老牌测试3d性能的软件了,横跨多平台,测试结果有一定的可比性。
Screenshot_2014-11-19-17-10-31.png

目前在安桌平台有一个ice storm可以测试,安装主程序完毕后需要在线下载动画包

Screenshot_2014-11-19-17-24-05.png

    经过绚丽的3d动画场景,测试结果出来了,当然,在测试过程中,为了测试结果的准确性,没有进行截图。

Screenshot_2014-11-19-17-29-17.png

    4K多的分数,纵向比较,可以完胜Tegra 3,略低于iPad 3 的水平。从帧数上看,即便是最复杂的场景,也能够撑过来,最低值为14.7帧,基本上达到15帧,能完成动画顺利播放。

Screenshot_2014-11-19-17-36-38.png
   

    应该说性能属于中规中矩,能运行大部分3d游戏,比如《极品飞车17 最高通缉》。这次笔者还专门测试了3.6G大小的2/3D实时解算游戏《幽浮:未知敌人》,除了极个别场景稍有卡顿,基本上可以保证较好的游戏体验。极品飞车全程无卡顿,顺利通关。

Screenshot_2014-11-18-22-50-57.png

Screenshot_2014-11-16-07-20-49.png

Screenshot_2014-11-18-23-01-32.png
光影效果

幽浮:未知敌人
Screenshot_2014-11-12-23-09-45.png

动画效果
Screenshot_2014-11-12-23-10-30.png
2/3D实时解算
Screenshot_2014-11-02-17-24-25.png

    性能测试通过了,但是荣耀平版电脑是不是和其他品牌平板电脑一样牺牲了续航来满足性能的需要呢?
    下面,首先由热像仪拍摄荣耀3x畅玩版和荣耀平板运行游戏前后的对比图,看一看发热量情况。
    游戏前,我们可以看到,荣耀3x畅玩版(以下简称畅玩版)主要是电池温度比较高,荣耀平板电脑整个航空铝合金后背板热量分布均匀,两端塑料部分比较凉。
IMG_4.JPG

    运行两个小时游戏后,让我们看看这时候的荣耀3x畅玩版和荣耀平板在发热量上有什么区别
    畅玩版的摄像头附近开始大量发热,手感有些烫,而此时荣耀平板电脑基本上和之前一样,没有什么变化。看来高通的8212和这块巨大的航空铝合金背板起到了很大作用,发热量控制很好,同时又能及时将热量散发出去。前面评测留下的伏笔,到这里可以揭开了。
IMG_13.JPG

IMG_25.JPG

    似乎这种效果不能看出什么端倪,索性,换为黑热模式,(之前为白热模式)
    经过精确调焦,终于发现了一些线索,原来荣耀平板发热主要部件在这里,注意看黑色区域,由于背板散热效果极好,所以在白热情况下,基本上没有发现发热源。一同附上畅玩版黑热图,看得出来,畅玩版已经热的不成样子了。

IMG_36.JPG

IMG_15.JPG


   
    仅仅有发热量情况,还是不够完整,我们实际测试下,在几种耗电模式下,荣耀平版电脑能坚持多长时间。
    下面罗列几个数据,完全由荣耀平板电脑实测。

   
视频播放(极度测试)

    使用系统内置播放器,屏幕亮度最高,媒体音量最大,永不休眠,播放HONOR_brand_video.mp4文件
    视频信息:honor_brand_video.mp4
      General
      Format : MPEG-4
      Format profile : Base Media
      Codec ID : isom
      File size : 121 MiB
      Duration : 4mn 10s
      Overall bit rate mode : Variable
      Overall bit rate : 4 064 Kbps
      Writing application : Lavf52.104.0
   Video #1
      ID : 1
      Format : MPEG-4 Visual
      Format profile : Simple@L3
      Format settings, BVOP : No
      Format settings, QPel : No
      Format settings, GMC : No warppoints
      Format settings, Matrix : Default (H.263)
      Codec ID : 20
      Duration : 4mn 10s
      Bit rate : 3 895 Kbps
      Width : 1280 pixels
      Height : 800 pixels
      Display aspect ratio : 1.600
      Frame rate mode : Constant
      Frame rate : 25.000 fps
      Color space : YUV
      Chroma subsampling : 4:2:0
      Bit depth : 8 bits
      Scan type : Progressive
      Compression mode : Lossy
      Bits/(Pixel*Frame) : 0.152
      Stream size : 116 MiB (96%)
      Writing library : Lavc52.116.0
   Audio #2
      ID : 2
      Format : AAC
      Format/Info : Advanced Audio Codec
      Format profile : LC
      Codec ID : 40
      Duration : 4mn 10s
      Bit rate mode : Variable
      Bit rate : 164 Kbps
      Channel(s) : 2 channels
      Channel positions : Front: L R
      Sampling rate : 48.0 KHz
      Compression mode : Lossy
      Stream size : 4.90 MiB (4%)
Screenshot_2014-11-11-21-19-51.png
    在这种极度耗电的模式下,平板电脑熬过了6个小时20分钟,正常情况下,一般是没有人将屏幕亮度调到最高,音量最大进行使用的。


3D游戏(正常测试)

清理后台程序,屏幕亮度自动,媒体音量中,永不休眠,运行游戏《幽浮:未知敌人》
Screenshot_2014-11-15-09-30-19.png

    看到荣耀平版电脑可以连续使用9个小时,这确实是个很惊人的成绩,因为在畅玩版上,只能熬过4个钟头。荣耀平板电脑的使用时间超过荣耀3x畅玩版一倍还多。




    离线待机

    手机插手机卡,关闭wifi,离线模式,锁屏
Screenshot_2014-11-07-22-15-53.png

    这样的数据是从100%开始,一天时间耗电量2%,笔者实在熬不下去了。只好作罢。毕竟纯待机的意义不大,没有什么人会让平板电脑一直处于待机状态。


    综上可以看出,荣耀平板电脑在功耗控制,热导率和待机时间上,都是非常出色的。依靠硬件低功耗的解决方案加上华为独有的智能节电模式和优秀的散热,共同造就了荣耀平版电脑的超长待机及良好手感。在这个问题上,把自家前辈都比了下去。难道这是不给用户充电机会的节奏么。这让每天一充的玩机族情何以堪……




评分

参与人数 2人气 +30 威望 +25 收起 理由
德州村长 + 15 + 15
花粉7615119 + 15 + 10 给跪了,就冲楼主这精神m( _ _ )m.

查看全部评分

点评和在主贴回复,可能不能及时看到;
有问题请回复我的帖子,便于持续跟进。
jiyeon950607  独步江湖  发表于 2014-11-21 14:52:07 来自:浏览器
谢谢分享
花粉7128796  炉火纯青  发表于 2014-11-21 20:08:39 来自:浏览器
学习中,路过好帖挺一下。
rogerman  热心花粉  发表于 2014-11-22 09:38:04 来自:浏览器
曼成 发表于 2014-11-21 09:28
比较特别的评测,感谢!希望能多多发资源帖和好玩的东西上来~~ ...

平民评测,不能走专业评测的套路,所以,我的理解是:不求专业,但求新鲜。感谢支持!有机会会多发帖的。
点评和在主贴回复,可能不能及时看到;
有问题请回复我的帖子,便于持续跟进。
花粉8421497  炉火纯青  发表于 2014-11-22 20:03:47 来自:浏览器
谢谢分享
rogerman  热心花粉  发表于 2014-11-24 13:52:39 来自:浏览器

共同探讨吧。
点评和在主贴回复,可能不能及时看到;
有问题请回复我的帖子,便于持续跟进。
德州村长  已臻大成  发表于 2015-1-14 15:26:24 来自:浏览器
本帖最后由 华song为 于 2015-1-14 15:29 编辑

特别的评测,特别的赞给你
      为明天,一起•善行
       欢迎加入德州花粉同城会,群号码:318928902
             微博http://weibo.com/u/5056849085
德州同城圈圈http://club.huawei.com/forum-476-1.html
煜晨灬  登堂入室  发表于 2015-1-14 20:49:09 来自:浏览器
什么时候出优享版的通话版本啊
扬帆远航007  炉火纯青  发表于 2015-1-14 21:38:51 来自:浏览器
非常详细的测评,谢谢楼主
rogerman  热心花粉  发表于 2015-1-14 23:17:40 来自:浏览器
煜晨灬 发表于 2015-1-14 20:49
什么时候出优享版的通话版本啊

希望会有吧,但是目前看还没有什么眉目。
点评和在主贴回复,可能不能及时看到;
有问题请回复我的帖子,便于持续跟进。
您需要登录后才可以回帖 登录 | 立即注册

EMUI10.0
用户组申请
版规
最新精华
  • 感知是我们与世界对话的方式——华为P系列
  • 感知是我们与世界对话的方式——华为P系列
  • 感知是我们与世界对话的方式——华为P系列
  • 感知是我们与世界对话的方式——华为P系列

工具下载

  • 花粉客户端官方

    Make it Possible

华为软件专区
粤ICP备19015064号-4|备案主体编号:44201919072182| 粤公网安备 44190002003939号

Copyright © 2012-2021 华为终端有限公司 版权所有

快速回复 返回顶部 返回列表